HD一条街

 找回密码
 立即注册
搜索
查看: 1466|回复: 17

[1080p] 侠盗高飞[简繁中文字幕]Full.Contact.1992.CHINESE.1080p.BluRay.x264-HANDJOB 8.29G

[复制链接]
发表于 2019-5-31 10:51:34 | 显示全部楼层 |阅读模式

马上注册,结交更多好友,享用更多功能,让你轻松玩转社区。

您需要 登录 才可以下载或查看,没有帐号?立即注册

x
本帖最后由 让心灵去旅行 于 2019-5-31 10:53 编辑 $ H% B+ m, ?! J; B/ u. b* f

4 _1 w9 p2 H# \1 I& F

. `* A( f! M* m: Q; X                               
登录/注册后可看大图
" e0 H" F$ m4 M
◎译  名 侠盗高飞 / Full Contact
% c! d' Y# I9 x" \4 _/ ~# r7 H5 Y◎片  名 俠盜高飛4 p6 N- H9 `5 s  o4 c  M
◎年  代 1992
( G5 P+ x$ ?. S' j4 G' |: C' I◎产  地 香港  i& g) T( G. u2 L
◎类  别 剧情 / 动作 / 惊悚 / 犯罪
3 f4 M7 p  ]" M7 y1 n: C  ^4 K◎语  言 粤语7 X: w9 c# u7 Y5 |3 ^- f
◎上映日期 1992-07-23(香港)
: ]" i& a  b/ X8 `- P5 X1 e0 {◎IMDb评分  7.2/10 from 3662 users& w2 t: h  i2 D8 d: ^# e; \, I) F
◎IMDb链接  http://www.imdb.com/title/tt01058516 R/ ?( e0 X; c# i; N5 v
◎豆瓣评分 6.9/10 from 6469 users( T3 ?1 |: }# @; R
◎豆瓣链接 https://movie.douban.com/subject/1300857/
- }  P# d- _  Z1 _◎片  长 99 分钟
3 n9 i$ Y$ r5 @3 i+ ?* k+ T2 s7 |◎导  演 林岭东 Ringo Lam
( h4 D- ~5 q* g3 a! L! Y+ w◎编  剧 南燕
3 I5 R6 m3 q" V' L/ l/ b; s; }* {◎主  演 周润发 Yun-Fat Chow
& c* L( g3 D4 Z, W( U6 k% N      任达华 Simon Yam
/ O5 c  |$ P" T9 |  g" @( W9 ~, d) c      黄秋生 Anthony Wong Chau-Sang
+ V3 M% @. y6 b6 w      柏安妮 Ann Bridgewater
7 u& Q5 h0 O" f  Q' Q      陈治良6 G( y# G1 {( e* {, f5 H
      李健生
2 {' N0 w5 C# E: n8 Q4 K* ^      符钰晶 Bonnie Fu
2 b: M% R9 ^9 f9 _
& a; {. `% x1 y1 w3 @◎简  介  3 k( T) }6 Z, k) a' L2 t
6 X0 u) x1 D/ c9 |/ p1 m; u, G
  这是周润发早期比较出名的英雄片之一。故事讲述的是担任保安的神枪手高飞(周润发 饰)为人侠义、一身正气,他的好友沈四(黄秋生 饰)欠下一身高利贷,被放高利贷的人抓走了,幸好高飞深入虎穴将沈四救出。沈四为了还债,央求高飞跟他一起合作协助贼人抢劫一批私运的军火,无奈下高飞答应了。整个计划进行得十分顺利,但就在得手后,高飞被贼人出卖,车子冲进了民居造成了一家人除了5岁的幼女全部罹难。为了弥补自己的错失,高飞觉得向贼人抢回赃款补偿幼女。- L$ m& m% M) h+ K4 ]
  1. Video
    ( n- D& D0 E  R/ Y5 r
  2. ID : 1
    % }0 e6 n( K: A
  3. Format : AVC
    / W6 V" {4 U3 j8 V# D
  4. Format/Info : Advanced Video Codec
    2 @9 J6 S5 U+ V( d
  5. Format profile : High@L4.17 v- V) B( r+ c$ ]; V/ G' a( W8 M
  6. Format settings : CABAC / 4 Ref Frames% D% C) g% U/ E/ l4 \$ q8 n
  7. Format settings, CABAC : Yes
    + {& s5 q. r' ^; b5 Z# F
  8. Format settings, ReFrames : 4 frames) P$ T- S  r3 K, s3 s9 K
  9. Codec ID : V_MPEG4/ISO/AVC* ?6 Z) ?9 W8 \3 z- M
  10. Duration : 1 h 38 min
    1 U* K, L% W2 D# O' F( n
  11. Bit rate : 11.4 Mb/s9 W4 X4 G& ^- F" ~; F+ m
  12. Width : 1 916 pixels
    ! F4 g: s# s; q* Z% _
  13. Height : 1 080 pixels
    6 [$ o: x1 P! @# a: b
  14. Display aspect ratio : 16:9( g" D# C- w9 ]5 ?7 f
  15. Frame rate mode : Constant
    ; x% l) C- Z! t
  16. Frame rate : 24.000 FPS) @0 B  x7 A6 j) k8 ~9 h+ v( E
  17. Color space : YUV
    0 G5 P" |0 p/ k+ I3 f4 ~5 ?
  18. Chroma subsampling : 4:2:09 C* u6 [: L. B& J. U" p
  19. Bit depth : 8 bits
    # E- e9 g" {/ V. o4 ]7 Q9 X$ J
  20. Scan type : Progressive
    " c1 H5 ^4 F$ b2 {6 w8 ]* n/ s
  21. Bits/(Pixel*Frame) : 0.229
    : a, Q' i0 p( ?
  22. Stream size : 7.84 GiB (95%)
    ) }. ^* o; E, L, y% s9 p8 b, A
  23. Writing library : x264 core 157 r2935 545de2f
    " m2 o. l7 F  b# z
  24. Encoding settings : cabac=1 / ref=4 / deblock=1:-3:-3 / analyse=0x3:0x133 / me=umh / subme=10 / psy=1 / psy_rd=1.00:0.00 / mixed_ref=1 / me_range=32 / chroma_me=1 / trellis=2 / 8x8dct=1 / cqm=0 / deadzone=21,11 / fast_pskip=0 / chroma_qp_offset=-2 / threads=18 / lookahead_threads=4 / sliced_threads=0 / nr=0 / decimate=0 / interlaced=0 / bluray_compat=0 / constrained_intra=0 / bframes=16 / b_pyramid=2 / b_adapt=2 / b_bias=0 / direct=3 / weightb=1 / open_gop=0 / weightp=2 / keyint=240 / keyint_min=24 / scenecut=40 / intra_refresh=0 / rc_lookahead=60 / rc=crf / mbtree=0 / crf=21.8 / qcomp=0.60 / qpmin=0 / qpmax=69 / qpstep=4 / vbv_maxrate=62500 / vbv_bufsize=78125 / crf_max=0.0 / nal_hrd=none / filler=0 / ip_ratio=1.40 / pb_ratio=1.30 / aq=2:1.00) ^& u/ J7 B. k6 K9 H* l7 \
  25. Language : Chinese
    ; |' W' x2 u: ]: Z
  26. Default : Yes
    ! T9 w1 ~5 [) b* V' j
  27. Forced : No
    : _) a8 @& O; i6 a
  28. Color range : Limited
    2 q& B6 O; B3 ?! b6 }4 w/ u
  29. Color primaries : BT.709
    0 o" ^2 L3 H& ?
  30. Transfer characteristics : BT.709
    - u1 O+ |  N! V; h1 c. ^
  31. Matrix coefficients : BT.709
    8 M  B- o0 r! t& F8 M$ j- _
  32. + L6 O- P0 S4 Q: d' y
  33. Audio7 ^: G! @5 A1 r  a- I
  34. ID : 2
    * @1 C2 m, ?& w2 c1 I
  35. Format : AC-3
    " o: B3 a! C8 @' y' B5 ?1 f
  36. Format/Info : Audio Coding 3
    + d5 H4 }: i. {
  37. Commercial name : Dolby Digital
    9 {% v# l& G$ Z
  38. Codec ID : A_AC32 }! j! l" j, m: A( y' u
  39. Duration : 1 h 38 min
    & X# U5 v4 @! F
  40. Bit rate mode : Constant5 H' j) F' }) a7 ?! @# g) b! M4 K) {
  41. Bit rate : 640 kb/s
    ' f; ~) U# c* w8 D2 L9 W2 X
  42. Channel(s) : 6 channels, R/ h3 V. {/ I. X  M% H; n' V
  43. Channel layout : L R C LFE Ls Rs& M# s. a. o, O/ Q# i( V  k) X
  44. Sampling rate : 48.0 kHz2 A* \7 @1 I1 E' c1 u: l2 `3 C6 \
  45. Frame rate : 31.250 FPS (1536 SPF)
    # M& u, x9 T  i" p# E. ]* T
  46. Bit depth : 16 bits
    # t; R" W4 N% n2 S& v* d( ]
  47. Compression mode : Lossy
    8 ?! |0 D1 A5 v. g; {. [
  48. Stream size : 452 MiB (5%)
    0 g- i) F3 R8 Z( \: L
  49. Language : Chinese. e' M( m6 p! q
  50. Service kind : Complete Main" o1 r$ `/ `( k  P9 f. W( Q
  51. Default : Yes4 M6 x5 C/ O: |% N8 I; |
  52. Forced : No
    4 _6 d, B4 Q5 F+ D5 j) Y
  53. . N6 f% M' @3 N' |% A0 s0 O- M
  54. Text #1, P2 V6 E' S- k
  55. ID : 3
    / X! O* \$ B; t; w9 e
  56. Format : UTF-8
    % g9 u- C: S/ A+ U
  57. Codec ID : S_TEXT/UTF89 @5 z/ K, n6 f1 ]
  58. Codec ID/Info : UTF-8 Plain Text5 M4 l7 m5 r' D7 }
  59. Duration : 1 h 35 min! I  v3 V) D! E& U
  60. Bit rate : 25 b/s5 r& z& L  @- E& M* r: }
  61. Count of elements : 750
    1 O# x5 G8 ~, s" G, j6 k
  62. Stream size : 17.7 KiB (0%)
    ; r, w& s3 @/ n& p
  63. Language : English
    " Y0 b/ _8 z8 C& R7 _% T# B
  64. Default : Yes
    ! v$ k: A4 I3 [6 ]4 W
  65. Forced : No
    ( c: h  e0 i8 }0 `" J
  66. ' s; Y9 f* g* n# s6 ]
  67. Text #2
    ) F, {# E" k8 N4 U( t: A
  68. ID : 4* ?: i2 |, t7 c5 [' z! w0 C9 y$ u5 F
  69. Format : UTF-8
    & ^8 Q' _' \$ D0 x6 \( s/ |
  70. Codec ID : S_TEXT/UTF8/ X7 a# p9 v( x5 {
  71. Codec ID/Info : UTF-8 Plain Text7 V+ A  [1 L) B  z/ @' m
  72. Duration : 1 h 35 min% ~3 r3 C+ r' `1 B0 `& c
  73. Bit rate : 27 b/s' {5 s, X/ b( N' D% k4 M  H
  74. Count of elements : 758
    7 G# e' _# o: k  k) ~
  75. Stream size : 18.9 KiB (0%)
    ) Q# I  Z0 n/ ^# Y! P! v# M8 R6 ?
  76. Title : Chinese [Simplified]3 _6 |, r: h8 v) t9 B
  77. Language : Chinese) f7 R9 p8 y0 v. _
  78. Default : No  D# Z) e/ P) ]$ O/ d* H2 J0 L
  79. Forced : No6 p1 i. _& e3 J% _. \4 `" E
  80. 7 C8 B/ i1 Y' J$ c
  81. Text #3
    # Q9 [% _/ {( x/ `1 Q
  82. ID : 59 @$ q: ]5 i" f" s" m
  83. Format : UTF-8
    ( v) w! A- n5 c# }
  84. Codec ID : S_TEXT/UTF84 }) F8 G3 p0 |7 _' G- o. f8 v
  85. Codec ID/Info : UTF-8 Plain Text
    6 U' k% {* [. j# \
  86. Duration : 1 h 35 min
    : C4 ?6 [+ p' I+ W2 `
  87. Bit rate : 27 b/s& F7 A  g! u# G. W
  88. Count of elements : 758+ v8 x2 n: a# L+ Q1 _' ~
  89. Stream size : 18.9 KiB (0%)
    / \- M' e, ^+ H, c" M
  90. Title : Chinese [Traditional]
    $ {; q% H; Y. @# ~$ ~
  91. Language : Chinese' j5 R- ?9 d6 g5 g( z
  92. Default : No9 w8 R+ a4 v4 K4 Y; s8 K
  93. Forced : No
    : g  d5 h" h/ n, V2 w

  94. ( a2 l6 }+ D8 X) W. b0 B
  95. Menu) ?& d, J! e: T  r0 Z2 d' T
  96. 00:00:00.000 : :Chapter 1; M; p) A$ j: _% c
  97. 00:07:14.125 : :Chapter 2
    6 v1 f* s0 ]3 S+ _! C$ S. e
  98. 00:16:51.875 : :Chapter 34 Z2 U9 Y( ]  {$ f4 g
  99. 00:22:07.708 : :Chapter 4  @) ~3 s/ v# w) W% H' V. f8 G
  100. 00:38:33.917 : :Chapter 5
    5 j% k% c1 y- X2 V# C7 t
  101. 00:45:36.333 : :Chapter 6* @- r+ ^' n" u* R
  102. 00:52:52.667 : :Chapter 7
    2 l8 [# [; E0 f2 w
  103. 00:59:33.292 : :Chapter 8) c) b- L* A: }  Q0 Y( [3 w4 V: T
  104. 01:03:42.250 : :Chapter 9- W+ W( F3 q5 `4 }  ~+ g( k
  105. 01:13:26.292 : :Chapter 107 G2 E7 I& s4 _
  106. 01:23:26.333 : :Chapter 11: b0 u- w1 m: ^# |# b
  107. 01:31:05.958 : :Chapter 12
复制代码
2 k9 c. m% ]9 @+ C8 r, x, M) l7 B

1 n+ n! h4 {7 E* [6 q
5 {, x2 x% J- W5 b) s+ U" B) U* H0 }
1 `# e8 r* L! [7 d
9 e4 \; @2 j! M; x# i4 s- y
* K+ y/ Q- v2 T. z( P, e, u
游客,如果您要查看本帖隐藏内容请回复  VIP可免回复查看隐藏内容 详情请点击
发表于 2019-5-31 11:07:27 | 显示全部楼层
游客无权限浏览该内容
发表于 2019-5-31 11:31:21 | 显示全部楼层
游客无权限浏览该内容
发表于 2019-5-31 14:43:32 | 显示全部楼层
游客无权限浏览该内容
发表于 2019-5-31 18:56:06 | 显示全部楼层
游客无权限浏览该内容
发表于 2019-6-5 12:38:41 | 显示全部楼层
游客无权限浏览该内容
发表于 2019-6-6 16:51:58 | 显示全部楼层
游客无权限浏览该内容
发表于 2019-6-6 20:41:44 | 显示全部楼层
游客无权限浏览该内容
发表于 2019-6-9 14:16:45 | 显示全部楼层
游客无权限浏览该内容
您需要登录后才可以回帖 登录 | 立即注册

本版积分规则

封号公示|电子邮件联系本站hd1tj.net#[换成@]outlook.com|免责申明|HD一条街

GMT+8, 2022-5-18 12:27

Powered by Discuz! X3.4

Copyright © 2001-2021, Tencent Cloud.

快速回复 返回顶部 返回列表