HD一条街

 找回密码
 立即注册
搜索
查看: 1545|回复: 15

[1080p] 风流断剑小小刀 The.Deadly.Breaking.Sword.1979.CHINESE.1080p.WEBRip.DDP2.0.x264-SbR 5.74G

[复制链接]
发表于 2019-4-12 18:57:19 | 显示全部楼层 |阅读模式

马上注册,结交更多好友,享用更多功能,让你轻松玩转社区。

您需要 登录 才可以下载或查看,没有帐号?立即注册

x
  M; Y5 G. r* P3 `) C
                               
登录/注册后可看大图

; \, U8 E0 U2 f( p2 ]* X0 |0 ~4 C) {' I4 I$ B$ k  z; T, A
◎译  名 风流断剑小小刀 / The Deadly Breaking Sword
: m3 ~" T( c) x0 k- y. F( S2 R( m◎片  名 風流斷劍小小刀
0 d$ I9 X/ s3 K1 _$ j1 l◎年  代 1979
' M- F3 A+ e( }3 d3 B◎产  地 香港
9 n2 n& F% d! M# u! J◎类  别 喜剧 / 动作$ a& Q/ K+ W# ~0 S' q! U1 S
◎语  言 汉语普通话
, ^# a' P8 g5 Z' r  I( L◎上映日期 1979-04-12; Q/ M  a2 K( E( ^7 b
◎IMDb评分 6.7/10 from 163 users
( R. ?3 {3 s- z◎IMDb链接 http://www.imdb.com/title/tt0079148
6 Z6 V$ z! Y+ k; \◎豆瓣评分 6.5/10 from 341 users8 e5 ^% q5 w4 R, M7 y
◎豆瓣链接 https://movie.douban.com/subject/1390008/
5 J% q6 u/ n9 ^0 I1 }◎片  长 101 分钟
5 q1 B/ Q, g( _! `1 p% g◎导  演 孙仲$ d5 m1 z2 p+ g: d9 u( H2 j3 w
◎编  剧 倪匡
0 i4 G( v+ y4 ^! A! r. Q1 }/ y8 T◎主  演 狄龙
* B& ~1 V2 z, p4 g5 s* h7 h7 J      傅声
/ T: [: G7 \" v      谷峰: l" w) J+ j! f# U/ C5 p
      施思
: K. |# C6 w4 X, c      李丽丽
; i6 u6 F+ ?/ J7 K& V9 E3 A  K) [3 M; u1 e0 i! y
" Q  R2 q6 `' f: A4 \
◎标  签 邵氏 | 狄龙 | 香港 | 傅声 | 武侠 | 孙仲 | 香港电影 | 谷峰
5 U" o+ d/ C+ t4 Y. P0 t+ v( a; [" A4 f
◎简  介  ' p0 {, s- {& u& W9 R: T

* k, V' S3 I; X9 v1 F/ B7 n  《風流斷劍小小刀》由張徹的愛將狄龍、傅聲攜手合作,集合了當时兩大武俠巨星,延續兩人俠骨仁風的硬朗形象。故事描寫大俠段長青(狄龍)在一小鎮得遇名妓柳銀絮(施思),柳懇求段殺死現以「神醫」為名的黑道高手郭天勝(谷峰),為其未婚夫報仇。段聯同鎮內賭坊護衛高門(傅聲)殺入郭家,正邪兩派惡鬥連場。此片有別於一般武俠故事,並非只以武鬥場面為中心,末段還加插了柳銀絮情歸何處,淡然帶出英雄舔血生涯的情感一面……
  M6 U: F$ S1 c
  1. Video+ {4 e9 T0 a' E, T, J+ |
  2. ID : 1
    / i* h2 Q0 R7 C) t
  3. Format : AVC9 @4 {5 j' Y7 `
  4. Format/Info : Advanced Video Codec0 s1 }1 N; u  H  d
  5. Format profile : High@L4$ x. R( x: J4 C0 c' I# d. H4 n' T
  6. Format settings : CABAC / 4 Ref Frames$ H- M$ P* b5 @* T. |
  7. Format settings, CABAC : Yes5 p5 C: b/ m9 ]0 q0 i, c5 o+ f; V$ c
  8. Format settings, ReFrames : 4 frames' E( F' p2 a& Q9 \* k
  9. Codec ID : V_MPEG4/ISO/AVC+ E; L& t8 {/ j" @& h7 c- k0 i9 C
  10. Duration : 1 h 41 min
    7 ], r- }6 v/ F5 r& W, e: b
  11. Bit rate mode : Constant. ~9 C4 I4 {3 f) `# o6 D) j
  12. Bit rate : 7 883 kb/s
    $ d: P  r9 {% g
  13. Nominal bit rate : 10 000 kb/s; H7 G: s9 n3 b! q# e
  14. Width : 1 920 pixels
    0 c0 ^. e. D0 E8 k  G" r
  15. Height : 816 pixels
    # {. H" U" `1 t9 P7 i/ u
  16. Display aspect ratio : 2.35:18 C  I3 P( _1 c% V
  17. Frame rate mode : Constant9 V7 d5 o: `+ L; h; S4 y
  18. Frame rate : 25.000 FPS/ X' h/ u& L- |, O7 o
  19. Color space : YUV: Z. S3 s5 N8 b1 x1 R7 ~5 g
  20. Chroma subsampling : 4:2:0
    1 K( v2 ?' z4 t: r' ~' O
  21. Bit depth : 8 bits
    + F7 e' S5 H1 [+ l0 d: \  H( H
  22. Scan type : Progressive! O7 w7 ^, @5 {! f9 a7 B- ~
  23. Bits/(Pixel*Frame) : 0.201
    4 E5 @9 v$ }& A  d7 J) w& Q$ u
  24. Stream size : 5.58 GiB (97%)! X' i+ `3 |9 o3 [& z2 y5 S5 `
  25. Default : Yes
    $ W3 ^4 T- O) X2 c- _8 t
  26. Forced : No/ c8 ?( T6 S! u1 e
  27. Color range : Limited
    7 m0 P- l! `4 l) N1 J. W, E/ [
  28. Color primaries : BT.709; p8 ^; h* _$ q# g9 H. J- l$ t
  29. Transfer characteristics : BT.709) u0 ^( Q" W" [7 F. F/ Q. F
  30. Matrix coefficients : BT.709
    - |8 a, u' {0 H% C9 N4 ^
  31. 3 G/ F) @' B: h: t4 w$ z0 U
  32. Audio0 n- }# ~+ }3 w6 o- I2 G; S  B
  33. ID : 23 b8 N: Q6 ]3 U! b8 ?
  34. Format : E-AC-3; L4 k; U9 t9 d: [1 T4 w* G
  35. Format/Info : Enhanced AC-3
    # m" g- ~: I' t
  36. Commercial name : Dolby Digital Plus
    . m8 y! R$ b7 m3 y+ `; }( J% }* O
  37. Codec ID : A_EAC3
    * c: W. L9 g8 D% o0 s) D
  38. Duration : 1 h 41 min
    ! U/ c- s6 ~- S1 F3 m9 A/ F
  39. Bit rate mode : Constant6 O% X5 D7 e  d- K! i( a
  40. Bit rate : 224 kb/s. ~0 [. T$ X7 \1 e
  41. Channel(s) : 2 channels- \! @: N3 t8 {- M' A
  42. Channel layout : L R' z7 q9 r8 T: }( y) u& ^2 M
  43. Sampling rate : 48.0 kHz8 e" ~" h9 p2 w, ?3 W
  44. Frame rate : 31.250 FPS (1536 SPF)! v/ S3 |5 l4 s
  45. Compression mode : Lossy+ t# w4 _. V; ]
  46. Stream size : 162 MiB (3%)
    7 w& t) g. f3 n* u. ~
  47. Language : Chinese
    1 [8 ?! M1 n/ t! X$ A
  48. Service kind : Complete Main: j7 `: C/ q+ S4 Q7 E
  49. Default : Yes
    . A' y# Q- t: p  b" ?9 k
  50. Forced : No/ b# E% G; H  F5 z2 x+ [

  51. 4 ?; y2 w) J2 Q! a1 c. w7 a
  52. Text0 c. _! h3 \4 z  e! `* N
  53. ID : 3
    1 r4 S$ t$ I, Q9 E' S+ A1 G  e, ^
  54. Format : UTF-85 z  E1 s) m" J
  55. Codec ID : S_TEXT/UTF8" i' F: |8 p7 H
  56. Codec ID/Info : UTF-8 Plain Text4 t8 p* f# S8 h8 \8 r( ^3 w2 G
  57. Duration : 1 h 40 min$ V7 A$ W. G1 S7 n- o5 M
  58. Bit rate : 40 b/s
    ) P, f/ r0 R+ ^
  59. Count of elements : 1215
    5 r! v( g, L. d* x6 U5 s
  60. Stream size : 30.0 KiB (0%)
    . ^( e8 A. b- R8 q
  61. Title : SDH# o1 j8 Q0 v" i" g7 I- q" ^2 O
  62. Language : English
    / ]% G0 B7 h6 R) l0 Z% f7 P* u
  63. Default : No+ o7 [( P8 ^0 @# a
  64. Forced : No
复制代码
, @+ n; X! K+ g7 Y1 ~
/ c) _1 n  ]" B8 U+ z) G

, }" F% t/ l! s) J+ @+ A5 E
5 }) Y$ X. z: n! ?* f9 L8 P4 i
$ b& |' ~. p; S9 t- x3 A$ p0 z: D) e; x- s$ J+ O
游客,如果您要查看本帖隐藏内容请回复  VIP可免回复查看隐藏内容 详情请点击
发表于 2019-4-12 19:34:17 | 显示全部楼层
游客无权限浏览该内容
发表于 2019-4-12 22:54:10 | 显示全部楼层
游客无权限浏览该内容
starsring 该用户已被删除
发表于 2019-4-13 06:36:42 | 显示全部楼层
提示: 作者被禁止或删除 内容自动屏蔽
发表于 2019-4-13 23:24:05 | 显示全部楼层
游客无权限浏览该内容
发表于 2019-4-14 17:20:36 | 显示全部楼层
游客无权限浏览该内容
kingasia 该用户已被删除
发表于 2019-4-19 08:17:24 | 显示全部楼层
提示: 作者被禁止或删除 内容自动屏蔽
chabin 该用户已被删除
发表于 2019-4-19 08:42:03 | 显示全部楼层
提示: 作者被禁止或删除 内容自动屏蔽
发表于 2019-4-22 00:01:38 | 显示全部楼层
游客无权限浏览该内容
CB5215898 该用户已被删除
发表于 2019-4-26 18:13:54 | 显示全部楼层
提示: 作者被禁止或删除 内容自动屏蔽
您需要登录后才可以回帖 登录 | 立即注册

本版积分规则

封号公示|电子邮件联系本站hd1tj.net#[换成@]outlook.com|免责申明|HD一条街

GMT+8, 2022-5-25 22:31

Powered by Discuz! X3.4

Copyright © 2001-2021, Tencent Cloud.

快速回复 返回顶部 返回列表