HD一条街

 找回密码
 立即注册
搜索
查看: 1440|回复: 15

[1080p] 唐山大兄[国粤双语]The.Big.Boss.1971.REMASTERED.CHINESE.1080p.BluRay.x264.DTS-FGT 9.11G

[复制链接]
发表于 2019-1-4 11:06:15 | 显示全部楼层 |阅读模式

马上注册,结交更多好友,享用更多功能,让你轻松玩转社区。

您需要 登录 才可以下载或查看,没有帐号?立即注册

x

9 [! H* b7 i2 t6 v( A* |                               
登录/注册后可看大图
, o$ @7 h- b3 _) ]' n! Z

% s% \5 r! P8 i3 `◎译  名 Fists of Glory / The Big Boss% p/ {! v2 c& m* x
◎片  名 唐山大兄
, E+ O2 z( t! e! G. S! j$ H. B- }◎年  代 1971
9 ]. P1 I/ T1 j. ~$ b  D+ u9 x0 v◎产  地 香港/ R! j( n) N# s
◎类  别 动作& m7 o& j4 \; V/ ?$ y7 }/ g
◎语  言 汉语普通话 / 粤语
; D$ l6 h. `! p9 _) u- O◎上映日期 1971-10-03# o) Z2 P7 G1 p  G" \$ }( M4 `" g
◎IMDb评分 7.1/10 from 21514 users0 D3 W! d# W, G3 W; h6 c
◎IMDb链接 http://www.imdb.com/title/tt00678246 r9 U2 a; D' R$ X5 `# s3 |* [* |
◎豆瓣评分 7.7/10 from 12053 users2 q, F) t1 |- o1 V
◎豆瓣链接 https://movie.douban.com/subject/1307577/$ A6 Y5 n" g  P6 P1 P
◎片  长 100分钟
1 W4 M) g1 O, q. q◎导  演 罗维 Wei Lo / 吴家骧 Chia-hsiang Wu
) O: G- G! T: M/ i◎编  剧 李小龙 / 罗维$ C' {$ Y& V6 @, p4 I3 Z% I! O$ A
◎主  演 李小龙 Bruce Lee$ P% u- M0 d' v
      田俊# U4 C" K7 l5 m$ \, s& H# u
      衣依" n  D, u1 V) C
      苗可秀 Nora Miao
: x, V" x! R  t- H0 @      林正英 Ching-Ying Lam
6 x( _! m: ~- m# v. U1 A0 X* a: K. X4 i' H
/ d6 V5 x& a6 n$ d
◎标  签 李小龙 | 动作 | 香港 | 功夫 | 香港电影 | 1971 | 罗维 | 武打# p! i1 \& K. o/ c8 O2 e% x  r/ T
9 O( Y8 ?' s5 e# C
◎简  介  6 y% A  @7 f. F* U$ y
' W' v* B( Y) A0 G0 e5 B
  因家乡年景不好,青年郑潮安(李小龙 饰)跟随三叔远赴泰国,郑在当地华工许剑(田俊 饰)的帮助下,得到了一份冰厂的工作。许剑为人仗义好打抱不平,时常卷入争斗,郑潮安虽也学得一身功夫,但碍于母亲的劝诫不能出手。华工们工作的这家冰厂为牟取利益,在冰中藏匿毒品贩运,不久,两名华工因为偶然拾到了冰中的毒品,被厂长和老板杀害,许剑向老板要人,反被对方派众打手于家中残忍杀害。工友们寻找失踪的华工和许剑无获,于是罢工抗议,厂长和监工们痛打工人,郑潮安仗义出手,厂长畏惧升其为领导,众工人称呼郑为“唐山大兄”。老板方面见笼络郑潮安不成,杀害了所有华工,郑潮安冲到老板家中,欲令其血债血偿……
% h. l9 \. n0 |! b  H* @4 I. t/ v& Y
  1. Video
    ( a, U' `+ f/ }- E
  2. ID : 18 n4 D  P# H0 a& A2 s
  3. Format : AVC
      H' O7 B4 L. t0 @% D3 c
  4. Format/Info : Advanced Video Codec. G* x/ U. a2 ]3 D6 C
  5. Format profile : High@L4.1
    - _; A) [" R2 ~* ]5 j( Z1 V/ Y
  6. Format settings : CABAC / 4 Ref Frames
    9 r# z3 |# R. j' D7 R  @
  7. Format settings, CABAC : Yes2 N* k, e) ^* c4 |/ T, j* q) _
  8. Format settings, ReFrames : 4 frames
    4 D4 ]% V+ P, i6 n$ C" |
  9. Codec ID : V_MPEG4/ISO/AVC
      M$ T5 ]8 m" J6 c4 ^7 B
  10. Duration : 1 h 40 min9 U0 x: K- A* s; z4 `
  11. Bit rate : 11.5 Mb/s  @! R7 C- P7 K7 ~8 v
  12. Width : 1 920 pixels
    ! B3 z" i8 |+ w
  13. Height : 820 pixels# O1 y* O6 c, f! I) o' A; C2 n+ V+ T% v
  14. Display aspect ratio : 2.35:1! q7 d: G  Z1 t" W# \# \* M% d
  15. Frame rate mode : Constant
    # T# {& {( J: i- |) ^7 C* V
  16. Frame rate : 23.976 (24000/1001) FPS: X8 h. c8 a) F8 v& H; {# ~$ V4 c. g
  17. Color space : YUV: f4 J' Z& k) G9 l7 T
  18. Chroma subsampling : 4:2:0
    ( V+ ]7 J" r# ]6 {# G6 `9 C, U6 V
  19. Bit depth : 8 bits
    9 Y1 M' O# O0 n0 K- M- ?2 H
  20. Scan type : Progressive+ O% R9 y& U& ?$ }
  21. Bits/(Pixel*Frame) : 0.305
    ; b) s$ V: U) E4 n
  22. Stream size : 8.05 GiB (88%)
    % A2 g! r- {' s( [+ O2 B4 J- r+ |
  23. Writing library : x264 core 148 r2795M aaa9aa8
    5 Y2 Z2 W) B* x
  24. Encoding settings : cabac=1 / ref=4 / deblock=1:-2:-2 / analyse=0x3:0x113 / me=umh / subme=9 / psy=1 / psy_rd=1.00:0.15 / mixed_ref=1 / me_range=16 / chroma_me=1 / trellis=2 / 8x8dct=1 / cqm=0 / deadzone=21,11 / fast_pskip=1 / chroma_qp_offset=-3 / threads=72 / lookahead_threads=3 / sliced_threads=0 / nr=0 / decimate=1 / interlaced=0 / bluray_compat=0 / constrained_intra=0 / bframes=3 / b_pyramid=2 / b_adapt=1 / b_bias=0 / direct=3 / weightb=1 / open_gop=0 / weightp=2 / keyint=250 / keyint_min=25 / scenecut=40 / intra_refresh=0 / rc_lookahead=50 / rc=2pass / mbtree=1 / bitrate=11500 / ratetol=1.0 / qcomp=0.60 / qpmin=0 / qpmax=69 / qpstep=4 / cplxblur=20.0 / qblur=0.5 / vbv_maxrate=31250 / vbv_bufsize=31250 / nal_hrd=none / filler=0 / ip_ratio=1.40 / aq=1:1.00
    . b7 F0 T5 Z& H/ ]: r: G
  25. Language : English0 h1 g0 L# N% g& l9 Z5 r
  26. Default : Yes
    . c; g3 F% ^2 f: `- q
  27. Forced : No
    ; x. J  N" p' i% [, ?7 `7 C

  28. : Z2 H1 g/ b, J
  29. Audio* ]/ O" A- E7 T# q, e
  30. ID : 2
    ) T- `4 Q7 {* M% k
  31. Format : DTS& ~; }: ^$ q7 J
  32. Format/Info : Digital Theater Systems: J7 t( h- M2 z
  33. Codec ID : A_DTS7 C- o; L* z/ n" v
  34. Duration : 1 h 40 min8 o) e5 T! f* x3 R9 I
  35. Bit rate mode : Constant+ c% B, A* _) Q* ]. J
  36. Bit rate : 1 509 kb/s' `1 C* i1 p3 _/ P
  37. Channel(s) : 6 channels
    * _3 ]9 E* F; F; Q
  38. Channel layout : C L R Ls Rs LFE
    8 ^% {5 Y2 f( N& a
  39. Sampling rate : 48.0 kHz
    + m$ q- i  b- N& }
  40. Frame rate : 93.750 FPS (512 SPF)4 C1 z  @# g* g8 s
  41. Bit depth : 24 bits
    . n* ^2 N4 f. |' t0 Q
  42. Compression mode : Lossy
    2 L  E- [) k5 G) o
  43. Stream size : 1.06 GiB (12%)
    & u7 }" ?1 S& a3 E; V8 {# i
  44. Title : The.Big.Boss.1971.REMASTERED.CHINESE.1080p.BluRay.REMUX.AVC.DTS-MA.5.1-FGT
    / w6 u8 _) x2 Q# t
  45. Language : Chinese* g, K( V+ _, C: i( A+ @$ L; v
  46. Default : No9 S% g5 V  j: T. r) R& X3 V3 i2 G9 c( x) J
  47. Forced : No
    7 D% v; q+ g4 h' s

  48. 3 U" b$ N9 N. M7 W: f$ c
  49. Text
    . `- }5 W  Y" ?5 ^
  50. ID : 36 _! r6 z& E! g9 ^$ L* C
  51. Format : UTF-8, p# ?8 Q' I# e( \2 M( I
  52. Codec ID : S_TEXT/UTF8
    4 G, {7 d4 v1 }1 N2 H
  53. Codec ID/Info : UTF-8 Plain Text. o4 \  L* D! `7 e: i7 {
  54. Duration : 1 h 37 min
    . ~; k, i- x9 j# f2 I
  55. Bit rate : 22 b/s- b+ q* _  C8 B3 m5 h
  56. Count of elements : 741: h! Z0 m; D7 _" b3 p# r7 g1 \* J
  57. Stream size : 16.2 KiB (0%)
    * ]9 N3 L9 s& f! F) ?
  58. Language : English
      I. T) @" Q( k
  59. Default : Yes$ f8 I  m+ x7 r3 U0 V! k' c/ W. ]
  60. Forced : Yes
    " o6 j7 W0 o; b" J, q# f( i. v

  61. 6 r( R- ?; ^9 t/ s7 y" w8 m
  62. Menu
    3 J3 e* k9 F! v7 j0 v4 K6 N7 C5 M8 R
  63. 00:00:00.000 : en:Chapter 01
      A5 h; U9 g5 M! G0 H$ s
  64. 00:09:36.284 : en:Chapter 02
    . b+ \. @& R0 G; I( q& _+ ?
  65. 00:17:45.564 : en:Chapter 033 m5 R6 p9 e) H/ u3 h9 Q0 p( D# L* D
  66. 00:22:06.783 : en:Chapter 04
    ( {% f* R: ~9 U3 h
  67. 00:29:32.771 : en:Chapter 050 M" b" u" a+ v8 `  I8 ]8 Z9 X
  68. 00:40:01.649 : en:Chapter 06
    , U/ s  X6 `9 T8 x+ L
  69. 00:48:16.143 : en:Chapter 07: G+ H9 G5 x+ l. h7 d
  70. 00:55:31.786 : en:Chapter 08/ X& e' ]9 K' C* w  H3 ^
  71. 01:06:05.753 : en:Chapter 09& z' Z7 {& N( R3 ?( t- o1 Q6 O
  72. 01:12:57.790 : en:Chapter 10
    / e: I; F) F2 F0 F8 P
  73. 01:18:40.507 : en:Chapter 11
    8 }" |' _' G! O; Y" |9 q  |
  74. 01:30:15.660 : en:Chapter 12
复制代码
/ m% L+ J7 b3 d2 p

  d/ h2 N0 T) `# d3 R6 h+ F2 ]6 {; m+ V$ ^9 R2 L) ?; T" v% p3 M
0 E* p* h" B2 o. |; Y2 }
5 K; D4 j6 o1 S; F' p

& ?2 \) W8 w$ r; [: y! c2 U
游客,如果您要查看本帖隐藏内容请回复  VIP可免回复查看隐藏内容 详情请点击
发表于 2019-1-4 13:52:24 | 显示全部楼层
游客无权限浏览该内容
发表于 2019-1-4 15:02:47 | 显示全部楼层
游客无权限浏览该内容
发表于 2019-1-4 19:23:07 | 显示全部楼层
游客无权限浏览该内容
发表于 2019-1-5 01:00:54 | 显示全部楼层
游客无权限浏览该内容
发表于 2019-1-5 10:01:24 | 显示全部楼层
游客无权限浏览该内容
发表于 2019-1-5 10:07:17 | 显示全部楼层
游客无权限浏览该内容
huanglinzi 该用户已被删除
发表于 2019-1-5 10:30:30 | 显示全部楼层
提示: 作者被禁止或删除 内容自动屏蔽
发表于 2019-1-16 09:12:10 | 显示全部楼层
游客无权限浏览该内容
黄昏下的日落 该用户已被删除
发表于 2019-1-18 12:23:44 | 显示全部楼层
提示: 作者被禁止或删除 内容自动屏蔽
您需要登录后才可以回帖 登录 | 立即注册

本版积分规则

封号公示|电子邮件联系本站hd1tj.net#[换成@]outlook.com|免责申明|HD一条街

GMT+8, 2022-5-24 11:16

Powered by Discuz! X3.4

Copyright © 2001-2021, Tencent Cloud.

快速回复 返回顶部 返回列表