HD一条街

 找回密码
 立即注册
搜索
查看: 2279|回复: 22

[1080p] 哆啦A梦:大雄的平行西游记[WOWOW高清重制版] [双国配(台配/港配)粤日四语]Doraemon The Record of Nobita's Parallel Visit to the West 1988 HDTV 1080i MPEG-2 4Audio-doraemon 13.47G

[复制链接]
发表于 2018-12-18 15:52:05 | 显示全部楼层 |阅读模式

马上注册,结交更多好友,享用更多功能,让你轻松玩转社区。

您需要 登录 才可以下载或查看,没有帐号?立即注册

x
引用
" t" e$ n. [$ t0 ^9 H. [8 O. D3 `% }片源由a574045075提供,在此感谢!
8 C8 S2 G( m' A2 {3 {4 p  p  E0 [台配国语音轨、港配国语音轨、粤语音轨提取自VCD,已做调制匹配高清重制版。; G9 B# @9 g. {0 p* S
如需转载,请注明出处!$ u5 S/ A* I; p6 ?

3 ^& |* X8 O" l" B5 M4 o

1 Y: N8 n% @  F4 E* k                               
登录/注册后可看大图
; q* _* y9 N3 S4 v8 I% p% o
◎译  名 哆啦A梦:大雄的平行西游记 / Doraemon: Nobita no Parareru saiyûki9 @7 V2 s/ N  ~1 u  K0 m
◎片  名 ドラえもん のび太のパラレル西遊記
3 X& N3 X# |1 H5 c- F+ U2 a  g◎年  代 1988" J% C# f# N" v2 E$ l
◎产  地 日本, V1 @. W' N( y( c3 r) X3 G: ~
◎类  别 科幻 / 动画 / 冒险5 Z+ _4 }+ ]! c
◎语  言 日语9 G# c( ?$ H9 P4 j" h; W
◎上映日期 1988-03-12(日本)' X2 U. Z5 y, t- H. S- b
◎IMDb评分  6.8/10 from 115 users
+ O2 K2 |! v- ?- s0 y+ @3 p" O◎IMDb链接  http://www.imdb.com/title/tt1147525; e9 c, D) J8 B0 f* p6 Z, e) O+ z
◎豆瓣评分 7.6/10 from 3368 users
. m6 z8 y: E! c◎豆瓣链接 https://movie.douban.com/subject/1458896/
- i; K: V% s/ z: `◎片  长 91分钟7 @: U4 ~! G0 M9 w" ~7 d" \0 L
◎导  演 芝山努 Tsutomu Shibayama
3 K& _( }6 o( h0 q% N◎主  演 大山信代 Nobuyo Ohyama) G" ~& W8 L) A- G: N* v1 c& G
      小原乃梨子 Noriko Ohara, j0 E0 [/ p. z) t1 U  n
      野村道子 Michiko Nomura
/ G7 v! ?. i+ r9 T% \  x# a      立壁和也 Kazuya Tatekabe8 r0 i6 e8 T1 y# c/ S' [
      肝付兼太 Kaneta Kimotsuki6 E$ K1 U" p, H8 a2 O* t2 u2 |

/ g* h' O' T. m6 m! C+ m◎简  介  
% V. I# x+ [  S+ Y" |6 e4 d: G7 f4 s( }! V' g; a" x
  为了在新生欢迎会上表演话剧《西游记》,大雄班级举行的话剧的排练。大雄(小原乃梨子 配音)想当孙悟空,可是却只是村人甲。为了证明自己最像孙悟空,大雄用航时机来到中国唐朝,想见孙悟空,而且真的见到了“孙悟空”。后来大雄以哆啦A梦(大山信代 配音)的道具为赌注,证明孙悟空很像 大雄。大雄与他的朋友来到唐朝,却没有见到孙悟空。因此大雄用哆啦A梦的模拟游戏机假扮孙悟空,最后被识破。由于没有关好机器,游戏里的妖怪从游戏机里跑了出来。妖怪最后统治了世界,大雄他们也面临危险。 为了恢复历史,拯救玄奘法师,大雄、静香(野村道子 配音)、小夫(肝付兼太 配音)和刚田武(立壁和也 配音)假扮孙悟空等角色来保护玄奘法师,踏上了冒险之旅……$ _# o5 g& ~0 E2 F- q0 _! A
  故事改编自小说《西游记》。  b0 O2 g. I2 o+ i3 y

" p. n1 }; s# f

) z" A; j9 p, k6 V                               
登录/注册后可看大图
$ h! R7 @5 s- c& x6 q, m

  z6 m6 ?8 s: a, h, _! V; P                               
登录/注册后可看大图

( @* m. l' V& X$ ?5 H, I. D: [
* V2 n8 U  r# S# V9 f3 T
                               
登录/注册后可看大图
  F0 V7 s7 `: J: ?+ e
引用
/ ~  d9 R' y" {% @7 S% HGeneral: B3 n. O; J# `) l4 T: k/ l
ID                          : 1 (0x1)
# Y8 K8 e  S( \; I8 iComplete name               : J:\Doraemon The Record of Nobita‘s Parallel Visit to the West 1988 HDTV 1080i MPEG-2 4Audio-doraemon.ts
  ^% ~1 V% D. V9 N, p- u" e5 n3 yFormat                      : MPEG-TS
, \8 O! u2 }" ]4 x3 XFile size                   : 13.5 GiB. {4 F8 o7 i! q3 g) p4 @" I" @' t
Duration                    : 1 h 30 min
8 p3 T8 K+ U* @Overall bit rate mode       : Variable
; A+ E% \3 k$ B  UOverall bit rate            : 21.2 Mb/s. ^: x! [" D& b0 a, c( g$ h
Maximum Overall bit rate    : 35.5 Mb/s
5 _1 C( P+ ?- A6 k2 a# ]2 _9 i5 E5 ~- D* g' m
Video
8 T$ `8 [% y4 c& oID                          : 4113 (0x1011)
0 n. c( K/ f2 e+ ]. [* i; R' |, |1 cMenu ID                     : 1 (0x1)  n8 ]( |0 ^# P$ j1 {$ \- r
Format                      : MPEG Video
& {5 z1 v7 u6 d, _; Y; HFormat version              : Version 24 J' A9 k. {4 }: A3 J
Format profile              : Main@High
, V# }& M# {0 G. m4 I4 G6 `0 OFormat settings             : CustomMatrix / BVOP
; |. M' f$ u% B: @Format settings, BVOP       : Yes% L+ p0 W# ]9 \* f" h' `& V2 ^) }
Format settings, Matrix     : Custom
% s/ h: s1 Z2 }, F1 p4 KFormat settings, GOP        : Variable
$ g" ]$ l1 X+ d6 k7 X/ sFormat settings, picture st : Frame  U& R  h2 `& B, k) Z3 [/ A
Codec ID                    : 2
0 m# i+ z. X9 j$ gDuration                    : 1 h 30 min) g0 _/ P; x: S
Bit rate mode               : Variable- ^* @6 J' o% s' @
Width                       : 1 920 pixels
5 X7 {+ Q" W9 {" |/ d# o1 m' IHeight                      : 1 080 pixels
3 w  o# a% g/ q3 xDisplay aspect ratio        : 16:9
5 u6 ]- Z7 U3 v5 u6 C) n0 HFrame rate                  : 29.970 (30000/1001) FPS
% W( Q3 }% J( N  {: P% C% l% N, s5 QColor space                 : YUV4 P4 a: Y6 H& k" f8 a" I7 z8 Z( d# x
Chroma subsampling          : 4:2:0
- ?+ e1 j/ [& t9 p# }6 }8 WBit depth                   : 8 bits; m1 ?2 d0 M( }. E$ U7 I
Scan type                   : Interlaced
1 ]; N3 [/ L5 D/ qScan order                  : Top Field First
. K$ m; d7 x/ J: c# O6 l4 DCompression mode            : Lossy( P# {, O" _! N9 U: e
Time code of first frame    : 00:00:00:00( L6 b5 g. U+ B& {% I: P
Time code source            : Group of pictures header, U  U" N: t% `, p
GOP, Open/Closed            : Open8 o) q7 v5 U" E" o: \5 K
Color primaries             : BT.7095 F4 J; n, |; B: |$ S
Transfer characteristics    : BT.709
; q7 S6 v1 {! z3 x7 y: YMatrix coefficients         : BT.709% z3 @7 o/ e; m  `! j& |
" A/ H+ T( U& T1 H' Q* G: A5 X
Audio #1+ @/ v  ^$ o5 b
ID                          : 4352 (0x1100)5 j- M+ ~7 W) T! Z
Menu ID                     : 1 (0x1)' s* E# H8 ^) G8 Y
Format                      : AAC LC
. \% ]& ~4 n# N# _9 OFormat/Info                 : Advanced Audio Codec Low Complexity. b2 B, s# E5 [& P
Format version              : Version 2
0 |) I1 d5 V, _% GMuxing mode                 : ADTS
  }) Y/ I. q0 CCodec ID                    : 15-26 |1 L' o6 x1 d0 u$ C
Duration                    : 1 h 30 min& P8 S" h3 Y' H3 l+ ?. R
Bit rate mode               : Variable
7 `, [6 ?8 a& v/ z9 B) _Channel(s)                  : 2 channels2 a: K! P  K6 _: h& ~  \
Channel layout              : L R( k9 }0 Q) R! ]) {% d- d- h3 [
Sampling rate               : 48.0 kHz) W5 i" ~' L# H
Frame rate                  : 46.875 FPS (1024 SPF)
7 c8 `8 M5 ^: {; d, E( FCompression mode            : Lossy
( f8 l9 M5 y9 gLanguage                    : Japanese2 {; _$ I6 h- u

  m( S2 d, z4 W; X3 p" }; c  KAudio #2
/ ^5 O8 `& x* ~% O( P, q1 dID                          : 4353 (0x1101)' C, ?- q$ j- H; m0 S0 f( z
Menu ID                     : 1 (0x1)9 K% j0 c3 ~+ Z$ V0 K4 R
Format                      : AC-3
5 u; T7 N& r! K* A7 H4 w9 ^Format/Info                 : Audio Coding 3( w% [' T' }% B% q) b( s2 W. Z
Commercial name             : Dolby Digital
. B2 g' Y6 x5 Y2 i1 y' NCodec ID                    : 129) n; U: q; q, o7 ^
Duration                    : 1 h 30 min. B; f0 R: j+ z' O" s3 i0 O, k
Bit rate mode               : Constant
5 q" Z( K' _+ q/ i* y/ B% V3 P' _Bit rate                    : 224 kb/s
; |6 T7 r3 o( r- H5 pChannel(s)                  : 2 channels
0 l2 H$ L* D: ?0 O7 HChannel layout              : L R& ?+ k. m6 n- x3 {6 H' A$ C
Sampling rate               : 48.0 kHz
' c- W, l% V  N% _$ U6 AFrame rate                  : 31.250 FPS (1536 SPF)0 r  R; {: g* E  t# y
Bit depth                   : 16 bits
4 e" v- |# ]) m* \0 kCompression mode            : Lossy! S- s+ i/ b4 ]$ x  c) L" \1 d
Stream size                 : 145 MiB (1%)
+ q' D8 }( Q5 F1 c' ^Language                    : Chinese 台配国语
' q' P& K. @3 y% U, ^9 AService kind                : Complete Main" x* J$ O5 k* P: v( t6 \

* Q) D9 c5 X% ]% IAudio #34 {+ a* C# {& o' V) k) v2 G: L
ID                          : 4354 (0x1102)
8 M$ }8 w- Y! B/ O: UMenu ID                     : 1 (0x1)3 J* ~3 q2 b( c
Format                      : AC-3
: H( S0 c% F3 p  I( FFormat/Info                 : Audio Coding 3. S0 j- N/ y+ p/ D4 e. N! u* V
Commercial name             : Dolby Digital# H# a$ Y4 c* J/ I$ `$ f3 U6 `9 T( P
Codec ID                    : 129
2 b) q: n8 {+ wDuration                    : 1 h 30 min
& R! g' I% N$ }1 FBit rate mode               : Constant; w" |9 y7 N, [, A. r) e4 f% R
Bit rate                    : 224 kb/s
! z+ R7 p1 S+ N) RChannel(s)                  : 2 channels
  L% f3 Q; k1 C( O$ NChannel layout              : L R/ F, M  _) C' O( c. u/ D7 R; X3 i
Sampling rate               : 48.0 kHz
& e# ?8 K; I9 b2 M; uFrame rate                  : 31.250 FPS (1536 SPF); f. v8 r% d6 ~
Bit depth                   : 16 bits
0 p% R# o6 `& P+ q6 d" KCompression mode            : Lossy
7 t: Z' f" |" O% q' oStream size                 : 145 MiB (1%)6 m& s* q2 w) q: b9 c9 X3 V2 }
Language                    : Chinese 港配国语6 D* I0 x( G! o
Service kind                : Complete Main
; I, m5 u- V* a
9 }- ^/ {( |0 T* b& V' YAudio #4
9 d3 q) R5 t9 t4 MID                          : 4355 (0x1103)
- I# E. M! V. V( S3 gMenu ID                     : 1 (0x1)
+ c1 l: m  |) b  x; d7 h4 qFormat                      : AC-3
; e9 g- g& s% |% @+ C+ d5 s1 \Format/Info                 : Audio Coding 3
4 z$ `; C  Z% ^' oCommercial name             : Dolby Digital+ \: H1 z/ Q) l  U' C6 l" Y* q
Codec ID                    : 129( c* X6 U0 d  N: G- [  ~! X
Duration                    : 1 h 30 min, W9 B' c' o* U8 l6 w8 ?
Bit rate mode               : Constant5 w; }& `* i# Q
Bit rate                    : 224 kb/s
! C" L4 A7 |( F+ UChannel(s)                  : 2 channels/ N- A6 y5 i2 w' d8 N) T! N
Channel layout              : L R
+ \0 {9 O) Y2 n0 j3 M4 cSampling rate               : 48.0 kHz
7 A( x: b( e' b6 D/ SFrame rate                  : 31.250 FPS (1536 SPF)
5 E, e# v0 f, k8 jBit depth                   : 16 bits
5 L$ w% i, @3 v7 jCompression mode            : Lossy
9 Z# x7 i3 E( H; X$ i$ i; \Stream size                 : 145 MiB (1%)7 |% l. p7 m) U3 v: u$ s8 i
Language                    : Chinese
0 k( k" u' c2 w. Y. F' kService kind                : Complete Main5 e4 _: N$ s2 H6 I: h' G( l
. J  s' P, a4 f6 ?! I7 {
( D+ W- J+ t( k" l4 G$ V
游客,如果您要查看本帖隐藏内容请回复  VIP可免回复查看隐藏内容 详情请点击
发表于 2018-12-18 22:59:21 | 显示全部楼层
游客无权限浏览该内容
发表于 2018-12-18 23:23:35 | 显示全部楼层
游客无权限浏览该内容
发表于 2018-12-19 00:25:35 | 显示全部楼层
游客无权限浏览该内容
发表于 2018-12-24 12:44:29 | 显示全部楼层
游客无权限浏览该内容
rackyghhcn 该用户已被删除
发表于 2018-12-26 16:29:46 | 显示全部楼层
提示: 作者被禁止或删除 内容自动屏蔽
发表于 2019-1-1 20:30:38 | 显示全部楼层
游客无权限浏览该内容
发表于 2019-1-3 18:00:59 | 显示全部楼层
游客无权限浏览该内容
发表于 2019-1-31 01:32:01 | 显示全部楼层
游客无权限浏览该内容
您需要登录后才可以回帖 登录 | 立即注册

本版积分规则

封号公示|电子邮件联系本站hd1tj.net#[换成@]outlook.com|免责申明|HD一条街

GMT+8, 2022-5-25 22:04

Powered by Discuz! X3.4

Copyright © 2001-2021, Tencent Cloud.

快速回复 返回顶部 返回列表